Zone Telechargement

Dernières actualités du site :

16/11 - Fitzcarraldo New!
16/11 - Heartland (CA) Saison 13 Episode 8 New!
16/11 - Fitzcarraldo New!

Entre deux fougères : Le film

Qualité Webrip VOSTFR

Entre deux fougères : Le film
Télécharger Entre deux fougères : Le film en HD



U.S.A.
Scott Aukerman
Zach Galifianakis, Peter Dinklage, David Letterman
Comédie,
Between Two Ferns: The Movie
- 3.0/5



Zach Galifianakis interroge de nombreuses personnalités de renom en rapport avec leur actualité mais ce dernier se met à agir de façon inappropriée... NFO x264: Show/hide text General Unique ID : 234085341980046126551283098427143353485 (0xB01B326C5FA384E6BA41CC6A2B55F48D) Complete name : Between.Two.Ferns.The.Movie.2019.VOSTFR.WEBRip.x264-ACOOL.WwW.Zone-Telechargement.Net.mkv Format : Matroska Format version : Version 4 / Version 2 File size : 804 MiB Duration : 1 h 22 min Overall bit rate : 1 359 kb/s Movie name : Entre deux fougères : Le film Encoded date : UTC 2019-09-20 21:24:46 Writing application : mkvmerge v25.0.0 ('Prog Noir') 64-bit Writing library : libebml v1.3.6 + libmatroska v1.4.9 Video ID : 1 Format : AVC Format/Info : Advanced Video Codec Format profile : [email protected] Format settings : CABAC / 5 Ref Frames Format settings, CABAC : Yes Format settings, ReFrames : 5 frames Codec ID : V_MPEG4/ISO/AVC Duration : 1 h 22 min Bit rate : 1 100 kb/s Width : 720 pixels Height : 360 pixels Display aspect ratio : 2.000 Frame rate mode : Constant Frame rate : 24.000 FPS Color space : YUV Chroma subsampling : 4:2:0 Bit depth : 8 bits Scan type : Progressive Bits/(Pixel*Frame) : 0.177 Stream size : 651 MiB (81%) Writing library : x264 core 152 r2851M ba24899 Encoding settings : cabac=1 / ref=5 / deblock=1:-1:-1 / analyse=0x3:0x113 / me=umh / subme=9 / psy=1 / psy_rd=1.00:0.15 / mixed_ref=1 / me_range=16 / chroma_me=1 / trellis=2 / 8x8dct=1 / cqm=0 / deadzone=21,11 / fast_pskip=1 / chroma_qp_offset=-3 / threads=24 / lookahead_threads=2 / sliced_threads=0 / nr=0 / decimate=1 / interlaced=0 / bluray_compat=0 / constrained_intra=0 / bframes=3 / b_pyramid=2 / b_adapt=2 / b_bias=0 / direct=3 / weightb=1 / open_gop=0 / weightp=2 / keyint=250 / keyint_min=24 / scenecut=40 / intra_refresh=0 / rc_lookahead=50 / rc=2pass / mbtree=1 / bitrate=1100 / ratetol=1.0 / qcomp=0.60 / qpmin=0 / qpmax=69 / qpstep=4 / cplxblur=20.0 / qblur=0.5 / ip_ratio=1.40 / aq=1:1.00 Default : Yes Forced : No Audio ID : 2 Format : AAC Format/Info : Advanced Audio Codec Format profile : LC Codec ID : A_AAC-2 Duration : 1 h 22 min Bit rate : 256 kb/s Channel(s) : 2 channels Channel positions : Front: L R Sampling rate : 48.0 kHz Frame rate : 46.875 FPS (1024 SPF) Compression mode : Lossy Delay relative to video : -43 ms Stream size : 152 MiB (19%) Title : English AAC 2.0 Language : English Default : Yes Forced : No Text #1 ID : 3 Format : UTF-8 Codec ID : S_TEXT/UTF8 Codec ID/Info : UTF-8 Plain Text Duration : 1 h 21 min Bit rate : 82 b/s Count of elements : 1776 Stream size : 49.2 KiB (0%) Title : FULL FR SRT Language : French Default : Yes Forced : Yes Text #2 ID : 4 Format : ASS Codec ID : S_TEXT/ASS Codec ID/Info : Advanced Sub Station Alpha Duration : 1 h 21 min Bit rate : 147 b/s Count of elements : 1776 Compression mode : Lossless Stream size : 88.2 KiB (0%) Title : FULL FR ASS Language : French Default : No Forced : No




Qualité/Format/Langue : Webrip VOSTFR





Liens De Téléchargement :




3.1
Animation,Comédie,
2019-10-16
3.7
Animation,
2019-05-22
3.3
Fantastique,Comédie,
2000-01-19
3.2
Historique,Drame,Biopic,
4.1
Aventure,Animation,
2019-07-17
Publié : 21-09-2019, 03:14


Commentaires:


Information
Vous devez vous connectez ou vous inscrire pour participer aux commentaires.
Il n'y a pas encore de commentaire sur cette fiche.

Zone-Telechargement n'héberge aucun fichier. La loi francaise vous autorise à telecharger un fichier seulement si vous en possedez l'original. Ni Zone-Telechargement, ni nos hebergeurs, ni personne ne pourront êtres tenu responsables d'une mauvaise utilisation de ce site.