Annabelle – La Maison Du Mal

Qualité BRRIP VOSTFR

Annabelle – La Maison Du Mal
Télécharger Annabelle – La Maison Du Mal en HD



U.S.A.
Gary Dauberman
Mckenna Grace, Madison Iseman, Katie Sarife
Epouvante-horreur,
2019-07-10
Annabelle Comes Home
- 2.7/5



Déterminés à mettre Annabelle hors d'état de nuire, les démonologues Ed et Lorraine Warren enferment la poupée démoniaque dans leur "pièce des souvenirs", en prenant soin de la placer derrière une vitre sacrée et de solliciter la bénédiction d'un prêtre. Mais Annabelle réveille les esprits maléfiques qui l'entourent... NFO x264: Show/hide text General Unique ID : 246913490975762220122101713607771002016 (0xB9C1CF0009E976D6D88811572D2B94A0) Complete name : Annabelle.Comes.Home.2019.VOSTFR.BRRip.x264-ACOOL.WwW.Zone-Telechargement.Net.mkv Format : Matroska Format version : Version 4 / Version 2 File size : 390 MiB Duration : 1 h 46 min Overall bit rate : 515 kb/s Movie name : Annabelle – La Maison Du Mal Encoded date : UTC 2019-09-20 21:18:52 Writing application : mkvmerge v25.0.0 ('Prog Noir') 64-bit Writing library : libebml v1.3.6 + libmatroska v1.4.9 Video ID : 1 Format : AVC Format/Info : Advanced Video Codec Format profile : [email protected] Format settings : CABAC / 5 Ref Frames Format settings, CABAC : Yes Format settings, ReFrames : 5 frames Codec ID : V_MPEG4/ISO/AVC Duration : 1 h 46 min Bit rate : 424 kb/s Width : 720 pixels Height : 302 pixels Display aspect ratio : 2.40:1 Frame rate mode : Constant Frame rate : 23.976 FPS Color space : YUV Chroma subsampling : 4:2:0 Bit depth : 8 bits Scan type : Progressive Bits/(Pixel*Frame) : 0.081 Stream size : 321 MiB (82%) Writing library : x264 core 158 r2984 3759fcb Encoding settings : cabac=1 / ref=5 / deblock=1:-3:-3 / analyse=0x3:0x113 / me=umh / subme=8 / psy=1 / psy_rd=1.00:0.00 / mixed_ref=1 / me_range=16 / chroma_me=1 / trellis=2 / 8x8dct=1 / cqm=0 / deadzone=21,11 / fast_pskip=1 / chroma_qp_offset=-2 / threads=9 / lookahead_threads=1 / sliced_threads=0 / nr=0 / decimate=1 / interlaced=0 / bluray_compat=0 / constrained_intra=0 / bframes=3 / b_pyramid=2 / b_adapt=1 / b_bias=0 / direct=3 / weightb=1 / open_gop=0 / weightp=2 / keyint=250 / keyint_min=23 / scenecut=40 / intra_refresh=0 / rc_lookahead=50 / rc=crf / mbtree=1 / crf=19.0 / qcomp=0.60 / qpmin=0 / qpmax=69 / qpstep=4 / ip_ratio=1.40 / aq=1:1.00 Language : English Default : Yes Forced : No Color range : Limited Matrix coefficients : BT.709 Audio ID : 2 Format : AAC Format/Info : Advanced Audio Codec Format profile : LC Codec ID : A_AAC-2 Duration : 1 h 46 min Bit rate : 88.7 kb/s Channel(s) : 2 channels Channel positions : Front: L R Sampling rate : 48.0 kHz Frame rate : 46.875 FPS (1024 SPF) Compression mode : Lossy Stream size : 67.3 MiB (17%) Title : English AAC 2.0 Language : English Default : Yes Forced : No Text #1 ID : 3 Format : UTF-8 Codec ID : S_TEXT/UTF8 Codec ID/Info : UTF-8 Plain Text Duration : 1 h 45 min Bit rate : 25 b/s Count of elements : 828 Stream size : 19.3 KiB (0%) Title : FULL FR SRT Language : French Default : Yes Forced : Yes Text #2 ID : 4 Format : ASS Codec ID : S_TEXT/ASS Codec ID/Info : Advanced Sub Station Alpha Duration : 1 h 45 min Bit rate : 48 b/s Count of elements : 828 Compression mode : Lossless Stream size : 37.0 KiB (0%) Title : FULL FR ASS Language : French Default : No Forced : No Menu 00:00:00.000 : en:00:00:00.000 00:07:57.560 : en:00:07:57.560 00:15:34.225 : en:00:15:34.225 00:24:02.066 : en:00:24:02.066 00:32:57.017 : en:00:32:57.017 00:43:00.411 : en:00:43:00.411 00:52:29.688 : en:00:52:29.688 01:02:07.599 : en:01:02:07.599 01:06:14.179 : en:01:06:14.179 01:15:05.334 : en:01:15:05.334 01:21:45.025 : en:01:21:45.025 01:30:22.250 : en:01:30:22.250 01:39:58.618 : en:01:39:58.618




Qualité/Format/Langue : BRRIP VOSTFR





Liens De Téléchargement :




3.1
Drame,Action,Policier,Thriller,
1984-01-11
3.2
Policier,Drame,Action,
3.7
Drame,
1993-05-26
3.2
Biopic,Comédie musicale,Western,
1.9
Comédie,Romance,
2010-10-27
Publié : 21-09-2019, 03:14


Commentaires:


Information
Vous devez vous connectez ou vous inscrire pour participer aux commentaires.
Il n'y a pas encore de commentaire sur cette fiche.

Zone-Telechargement n'héberge aucun fichier. La loi francaise vous autorise à telecharger un fichier seulement si vous en possedez l'original. Ni Zone-Telechargement, ni nos hebergeurs, ni personne ne pourront êtres tenu responsables d'une mauvaise utilisation de ce site.