Crawl

Qualité BRRIP VOSTFR

Crawl
Télécharger Crawl en HD



Australie
Paul China
Georgina Haig, George Shevtsov, Lynda Stoner
Thriller,
Crawl
- 3/5



Le propriétaire d'un bar douteux engage un mystérieux Croate pour assassiner une connaissance suite à une dette impayée. Le contrat assuré, une jeune serveuse se retrouve impliquée malgré elle dans le complot. Devenue otage de sa propre maison, elle est obligée à prendre des mesures désespérées pour survivre, les événements s'enchaînant jusqu'à un dénouement des plus sanglants... NFO: Show/hide text General Unique ID : 246148206262746602125469215247627750411 (0xB92E6B8CF9AFBCC1AE0E2E4278208C0B) Complete name : Crawl.2011.FANSUB.VOSTFR.BRRip.1080p.HDLight.x264.AC3-LTaTM.WwW.Zone-Telechargement.Net.mkv Format : Matroska Format version : Version 4 / Version 2 File size : 2.20 GiB Duration : 1 h 20 min Overall bit rate : 3 891 kb/s Encoded date : UTC 2019-09-13 23:52:09 Writing application : mkvmerge v9.3.1 ('Mask Machine') 64bit Writing library : libebml v1.3.4 + libmatroska v1.4.5 Video ID : 1 Format : AVC Format/Info : Advanced Video Codec Format profile : [email protected] Format settings : CABAC / 4 Ref Frames Format settings, CABAC : Yes Format settings, ReFrames : 4 frames Codec ID : V_MPEG4/ISO/AVC Duration : 1 h 20 min Bit rate : 3 571 kb/s Width : 1 920 pixels Height : 808 pixels Display aspect ratio : 2.40:1 Frame rate mode : Constant Frame rate : 24.000 FPS Color space : YUV Chroma subsampling : 4:2:0 Bit depth : 8 bits Scan type : Progressive Bits/(Pixel*Frame) : 0.096 Stream size : 2.01 GiB (92%) Writing library : x264 core 148 r2665 a01e339 Encoding settings : cabac=1 / ref=3 / deblock=1:0:0 / analyse=0x3:0x113 / me=hex / subme=7 / psy=1 / psy_rd=1.00:0.00 / mixed_ref=1 / me_range=16 / chroma_me=1 / trellis=1 / 8x8dct=1 / cqm=0 / deadzone=21,11 / fast_pskip=1 / chroma_qp_offset=-2 / threads=6 / lookahead_threads=1 / sliced_threads=0 / nr=0 / decimate=1 / interlaced=0 / bluray_compat=0 / constrained_intra=0 / bframes=3 / b_pyramid=2 / b_adapt=1 / b_bias=0 / direct=1 / weightb=1 / open_gop=0 / weightp=2 / keyint=250 / keyint_min=23 / scenecut=40 / intra_refresh=0 / rc_lookahead=40 / rc=2pass / mbtree=1 / bitrate=3571 / ratetol=1.0 / qcomp=0.60 / qpmin=0 / qpmax=69 / qpstep=4 / cplxblur=20.0 / qblur=0.5 / ip_ratio=1.40 / aq=1:1.00 Default : Yes Forced : No Audio ID : 2 Format : AC-3 Format/Info : Audio Coding 3 Codec ID : A_AC3 Duration : 1 h 20 min Bit rate mode : Constant Bit rate : 320 kb/s Channel(s) : 2 channels Channel positions : Front: L R Sampling rate : 48.0 kHz Frame rate : 31.250 FPS (1536 SPF) Bit depth : 16 bits Compression mode : Lossy Stream size : 185 MiB (8%) Language : English Service kind : Complete Main Default : Yes Forced : No




Qualité/Format/Langue : BRRIP VOSTFR





Liens De Téléchargement :




3.1
Drame,Action,Policier,Thriller,
1984-01-11
3.2
Policier,Drame,Action,
3.7
Drame,
1993-05-26
3.2
Biopic,Comédie musicale,Western,
1.9
Comédie,Romance,
2010-10-27
Publié : 29-09-2019, 17:50


Commentaires:


Information
Vous devez vous connectez ou vous inscrire pour participer aux commentaires.
Il n'y a pas encore de commentaire sur cette fiche.

Zone-Telechargement n'héberge aucun fichier. La loi francaise vous autorise à telecharger un fichier seulement si vous en possedez l'original. Ni Zone-Telechargement, ni nos hebergeurs, ni personne ne pourront êtres tenu responsables d'une mauvaise utilisation de ce site.